  0
SECTION
  2
HEADER
  9
$ACADVER
  1
AC1009
  9
$INSBASE
 10
0.0
 20
0.0
 30
0.0
  9
$EXTMIN
 10
76.5
 20
15.0
 30
0.0
  9
$EXTMAX
 10
223.49999999999989
 20
241.00000000000011
 30
0.0
  9
$LIMMIN
 10
0.0
 20
0.0
  9
$LIMMAX
 10
12.0
 20
9.0
  9
$ORTHOMODE
 70
     0
  9
$REGENMODE
 70
     1
  9
$FILLMODE
 70
     1
  9
$QTEXTMODE
 70
     0
  9
$MIRRTEXT
 70
     1
  9
$DRAGMODE
 70
     2
  9
$LTSCALE
 40
1.0
  9
$OSMODE
 70
    37
  9
$ATTMODE
 70
     1
  9
$TEXTSIZE
 40
0.2
  9
$TRACEWID
 40
0.05
  9
$TEXTSTYLE
  7
STANDARD
  9
$CLAYER
  8
TEXT
  9
$CELTYPE
  6
BYLAYER
  9
$CECOLOR
 62
   256
  9
$DIMSCALE
 40
1.0
  9
$DIMASZ
 40
2.5
  9
$DIMEXO
 40
0.5
  9
$DIMDLI
 40
0.38
  9
$DIMRND
 40
0.0
  9
$DIMDLE
 40
0.0
  9
$DIMEXE
 40
0.5
  9
$DIMTP
 40
0.0
  9
$DIMTM
 40
0.0
  9
$DIMTXT
 40
2.5
  9
$DIMCEN
 40
0.5
  9
$DIMTSZ
 40
0.0
  9
$DIMTOL
 70
     0
  9
$DIMLIM
 70
     0
  9
$DIMTIH
 70
     1
  9
$DIMTOH
 70
     1
  9
$DIMSE1
 70
     0
  9
$DIMSE2
 70
     0
  9
$DIMTAD
 70
     0
  9
$DIMZIN
 70
     0
  9
$DIMBLK
  1

  9
$DIMASO
 70
     1
  9
$DIMSHO
 70
     1
  9
$DIMPOST
  1

  9
$DIMAPOST
  1

  9
$DIMALT
 70
     0
  9
$DIMALTD
 70
     2
  9
$DIMALTF
 40
25.399999999999999
  9
$DIMLFAC
 40
1.0
  9
$DIMTOFL
 70
     0
  9
$DIMTVP
 40
0.0
  9
$DIMTIX
 70
     0
  9
$DIMSOXD
 70
     0
  9
$DIMSAH
 70
     0
  9
$DIMBLK1
  1

  9
$DIMBLK2
  1

  9
$DIMSTYLE
  2
OSNOVA
  9
$DIMCLRD
 70
     0
  9
$DIMCLRE
 70
     0
  9
$DIMCLRT
 70
     0
  9
$DIMTFAC
 40
1.0
  9
$DIMGAP
 40
0.1
  9
$LUNITS
 70
     2
  9
$LUPREC
 70
     4
  9
$SKETCHINC
 40
0.1
  9
$FILLETRAD
 40
0.0
  9
$AUNITS
 70
     0
  9
$AUPREC
 70
     0
  9
$MENU
  1
acad
  9
$ELEVATION
 40
0.0
  9
$PELEVATION
 40
0.0
  9
$THICKNESS
 40
0.0
  9
$LIMCHECK
 70
     0
  9
$BLIPMODE
 70
     0
  9
$CHAMFERA
 40
0.0
  9
$CHAMFERB
 40
0.0
  9
$SKPOLY
 70
     0
  9
$TDCREATE
 40
2454488.460581365
  9
$TDUPDATE
 40
2454526.4506589929
  9
$TDINDWG
 40
0.0665069792
  9
$TDUSRTIMER
 40
0.0665069792
  9
$USRTIMER
 70
     1
  9
$ANGBASE
 50
0.0
  9
$ANGDIR
 70
     0
  9
$PDMODE
 70
     0
  9
$PDSIZE
 40
0.0
  9
$PLINEWID
 40
0.0
  9
$COORDS
 70
     2
  9
$SPLFRAME
 70
     0
  9
$SPLINETYPE
 70
     6
  9
$SPLINESEGS
 70
     8
  9
$ATTDIA
 70
     0
  9
$ATTREQ
 70
     1
  9
$HANDLING
 70
  4097
  9
$HANDSEED
  5
4AB
  9
$SURFTAB1
 70
     6
  9
$SURFTAB2
 70
     6
  9
$SURFTYPE
 70
     6
  9
$SURFU
 70
     6
  9
$SURFV
 70
     6
  9
$UCSNAME
  2

  9
$UCSORG
 10
0.0
 20
0.0
 30
0.0
  9
$UCSXDIR
 10
1.0
 20
0.0
 30
0.0
  9
$UCSYDIR
 10
0.0
 20
1.0
 30
0.0
  9
$PUCSNAME
  2

  9
$PUCSORG
 10
0.0
 20
0.0
 30
0.0
  9
$PUCSXDIR
 10
1.0
 20
0.0
 30
0.0
  9
$PUCSYDIR
 10
0.0
 20
1.0
 30
0.0
  9
$USERI1
 70
     0
  9
$USERI2
 70
     0
  9
$USERI3
 70
     0
  9
$USERI4
 70
     0
  9
$USERI5
 70
     0
  9
$USERR1
 40
0.0
  9
$USERR2
 40
0.0
  9
$USERR3
 40
0.0
  9
$USERR4
 40
0.0
  9
$USERR5
 40
0.0
  9
$WORLDVIEW
 70
     1
  9
$SHADEDGE
 70
     3
  9
$SHADEDIF
 70
    70
  9
$TILEMODE
 70
     1
  9
$MAXACTVP
 70
    16
  9
$PLIMCHECK
 70
     0
  9
$PEXTMIN
 10
1.0000000000000000E+020
 20
1.0000000000000000E+020
 30
1.0000000000000000E+020
  9
$PEXTMAX
 10
-1.0000000000000000E+020
 20
-1.0000000000000000E+020
 30
-1.0000000000000000E+020
  9
$PLIMMIN
 10
0.0
 20
0.0
  9
$PLIMMAX
 10
12.0
 20
9.0
  9
$UNITMODE
 70
     0
  9
$VISRETAIN
 70
     0
  9
$PLINEGEN
 70
     0
  9
$PSLTSCALE
 70
     1
  0
ENDSEC
  0
SECTION
  2
TABLES
  0
TABLE
  2
VPORT
 70
     4
  0
VPORT
  2
*ACTIVE
 70
     0
 10
0.0
 20
0.0
 11
1.0
 21
1.0
 12
148.51830030226751
 22
123.9465760954749
 13
0.0
 23
0.0
 14
0.5
 24
0.5
 15
10.0
 25
10.0
 16
0.0
 26
0.0
 36
1.0
 17
0.0
 27
0.0
 37
0.0
 40
264.89837964301381
 41
1.625615763546798
 42
50.0
 43
0.0
 44
0.0
 50
0.0
 51
0.0
 71
     0
 72
   100
 73
     1
 74
     1
 75
     1
 76
     1
 77
     0
 78
     2
  0
ENDTAB
  0
TABLE
  2
LTYPE
 70
    25
  0
LTYPE
  2
CONTINUOUS
 70
     0
  3
Solid line
 72
    65
 73
     0
 40
0.0
  0
LTYPE
  2
BORDER
 70
     0
  3
__ __ . __ __ . __ __ . __ __ . __ __ . __ __ .
 72
    65
 73
     6
 40
1.75
 49
0.5
 49
-0.25
 49
0.5
 49
-0.25
 49
0.0
 49
-0.25
  0
LTYPE
  2
BORDER2
 70
     0
  3
__.__.__.__.__.__.__.__.__.__.__.__.__.__.__.__
 72
    65
 73
     6
 40
0.875
 49
0.25
 49
-0.125
 49
0.25
 49
-0.125
 49
0.0
 49
-0.125
  0
LTYPE
  2
BORDERX2
 70
     0
  3
____  ____  .  ____  ____  .  ____  ____  .  __
 72
    65
 73
     6
 40
3.5
 49
1.0
 49
-0.5
 49
1.0
 49
-0.5
 49
0.0
 49
-0.5
  0
LTYPE
  2
CENTER
 70
     0
  3
____ _ ____ _ ____ _ ____ _ ____ _ ____ _ ____ 
 72
    65
 73
     4
 40
2.0
 49
1.25
 49
-0.25
 49
0.25
 49
-0.25
  0
LTYPE
  2
CENTER2
 70
     0
  3
___ _ ___ _ ___ _ ___ _ ___ _ ___ _ ___ _ ___ _
 72
    65
 73
     4
 40
1.125
 49
0.75
 49
-0.125
 49
0.125
 49
-0.125
  0
LTYPE
  2
CENTERX2
 70
     0
  3
________  __  ________  __  ________  __  _____
 72
    65
 73
     4
 40
4.0
 49
2.5
 49
-0.5
 49
0.5
 49
-0.5
  0
LTYPE
  2
DASHDOT
 70
     0
  3
__ . __ . __ . __ . __ . __ . __ . __ . __ . __
 72
    65
 73
     4
 40
1.0
 49
0.5
 49
-0.25
 49
0.0
 49
-0.25
  0
LTYPE
  2
DASHDOT2
 70
     0
  3
_._._._._._._._._._._._._._._._._._._._._._._._
 72
    65
 73
     4
 40
0.5
 49
0.25
 49
-0.125
 49
0.0
 49
-0.125
  0
LTYPE
  2
DASHDOTX2
 70
     0
  3
____  .  ____  .  ____  .  ____  .  ____  .  __
 72
    65
 73
     4
 40
2.0
 49
1.0
 49
-0.5
 49
0.0
 49
-0.5
  0
LTYPE
  2
DASHED
 70
     0
  3
__ __ __ __ __ __ __ __ __ __ __ __ __ __ __ __
 72
    65
 73
     2
 40
0.75
 49
0.5
 49
-0.25
  0
LTYPE
  2
DASHED2
 70
     0
  3
_ _ _ _ _ _ _ _ _ _ _ _ _ _ _ _ _ _ _ _ _ _ _ _
 72
    65
 73
     2
 40
0.375
 49
0.25
 49
-0.125
  0
LTYPE
  2
DASHEDX2
 70
     0
  3
____  ____  ____  ____  ____  ____  ____  ____ 
 72
    65
 73
     2
 40
1.5
 49
1.0
 49
-0.5
  0
LTYPE
  2
DIVIDE
 70
     0
  3
____ . . ____ . . ____ . . ____ . . ____ . . __
 72
    65
 73
     6
 40
1.25
 49
0.5
 49
-0.25
 49
0.0
 49
-0.25
 49
0.0
 49
-0.25
  0
LTYPE
  2
DIVIDE2
 70
     0
  3
__..__..__..__..__..__..__..__..__..__..__..__.
 72
    65
 73
     6
 40
0.625
 49
0.25
 49
-0.125
 49
0.0
 49
-0.125
 49
0.0
 49
-0.125
  0
LTYPE
  2
DIVIDEX2
 70
     0
  3
________  .  .  ________  .  .  ________  .  . 
 72
    65
 73
     6
 40
2.5
 49
1.0
 49
-0.5
 49
0.0
 49
-0.5
 49
0.0
 49
-0.5
  0
LTYPE
  2
DOT
 70
     0
  3
. . . . . . . . . . . . . . . . . . . . . . . .
 72
    65
 73
     2
 40
0.25
 49
0.0
 49
-0.25
  0
LTYPE
  2
DOT2
 70
     0
  3
...............................................
 72
    65
 73
     2
 40
0.125
 49
0.0
 49
-0.125
  0
LTYPE
  2
DOTX2
 70
     0
  3
.  .  .  .  .  .  .  .  .  .  .  .  .  .  .  . 
 72
    65
 73
     2
 40
0.5
 49
0.0
 49
-0.5
  0
LTYPE
  2
HIDDEN
 70
     0
  3
__ __ __ __ __ __ __ __ __ __ __ __ __ __ __ __
 72
    65
 73
     2
 40
0.375
 49
0.25
 49
-0.125
  0
LTYPE
  2
HIDDEN2
 70
     0
  3
_ _ _ _ _ _ _ _ _ _ _ _ _ _ _ _ _ _ _ _ _ _ _ _
 72
    65
 73
     2
 40
0.1875
 49
0.125
 49
-0.0625
  0
LTYPE
  2
HIDDENX2
 70
     0
  3
____ ____ ____ ____ ____ ____ ____ ____ ____ __
 72
    65
 73
     2
 40
0.75
 49
0.5
 49
-0.25
  0
LTYPE
  2
PHANTOM
 70
     0
  3
______  __  __  ______  __  __  ______  __  __ 
 72
    65
 73
     6
 40
2.5
 49
1.25
 49
-0.25
 49
0.25
 49
-0.25
 49
0.25
 49
-0.25
  0
LTYPE
  2
PHANTOM2
 70
     0
  3
___ _ _ ___ _ _ ___ _ _ ___ _ _ ___ _ _ ___ _ _
 72
    65
 73
     6
 40
1.25
 49
0.625
 49
-0.125
 49
0.125
 49
-0.125
 49
0.125
 49
-0.125
  0
LTYPE
  2
PHANTOMX2
 70
     0
  3
____________    ____    ____    ____________   
 72
    65
 73
     6
 40
5.0
 49
2.5
 49
-0.5
 49
0.5
 49
-0.5
 49
0.5
 49
-0.5
  0
ENDTAB
  0
TABLE
  2
LAYER
 70
    14
  0
LAYER
  2
0
 70
     0
 62
     7
  6
CONTINUOUS
  0
LAYER
  2
POCRTE
 70
     0
 62
     2
  6
DOT
  0
LAYER
  2
TEXTP
 70
     0
 62
     7
  6
CONTINUOUS
  0
LAYER
  2
TEXT
 70
     0
 62
     7
  6
CONTINUOUS
  0
LAYER
  2
CLINE
 70
     0
 62
    -1
  6
CENTER
  0
LAYER
  2
OSNOVA
 70
     0
 62
     3
  6
CONTINUOUS
  0
LAYER
  2
SPRED
 70
     0
 62
     3
  6
CONTINUOUS
  0
LAYER
  2
ZADAJ
 70
     0
 62
     3
  6
DASHED
  0
LAYER
  2
HATCH
 70
     0
 62
     7
  6
CONTINUOUS
  0
LAYER
  2
ASHADE
 70
     0
 62
     7
  6
CONTINUOUS
  0
LAYER
  2
1
 70
     0
 62
     1
  6
CONTINUOUS
  0
LAYER
  2
2
 70
     0
 62
     4
  6
CONTINUOUS
  0
LAYER
  2
3
 70
     0
 62
     6
  6
CONTINUOUS
  0
LAYER
  2
DEFPOINTS
 70
     0
 62
     7
  6
CONTINUOUS
  0
ENDTAB
  0
TABLE
  2
STYLE
 70
     5
  0
STYLE
  2
STANDARD
 70
     0
 40
0.0
 41
1.0
 50
0.0
 71
     0
 42
0.2
  3
txt
  4

  0
STYLE
  2
ROMAND
 70
     0
 40
0.0
 41
1.0
 50
0.0
 71
     0
 42
0.2
  3
romand
  4

  0
STYLE
  2
ADESK1
 70
     0
 40
0.0
 41
1.0
 50
0.0
 71
     0
 42
4.0
  3
romans
  4

  0
STYLE
  2
TECHNICLIGHT
 70
     0
 40
0.0
 41
1.0
 50
0.0
 71
     0
 42
0.2
  3
tel_____.pfb
  4

  0
STYLE
  2
ASHADE
 70
     0
 40
0.2
 41
1.0
 50
0.0
 71
     0
 42
0.2
  3
simplex
  4

  0
ENDTAB
  0
TABLE
  2
VIEW
 70
     0
  0
ENDTAB
  0
TABLE
  2
UCS
 70
     0
  0
ENDTAB
  0
TABLE
  2
APPID
 70
     2
  0
APPID
  2
ACAD
 70
     0
  0
APPID
  2
AVE_RENDER
 70
     0
  0
ENDTAB
  0
TABLE
  2
DIMSTYLE
 70
     1
  0
DIMSTYLE
  2
OSNOVA
 70
     0
  3

  4

  5

  6

  7

 40
1.0
 41
2.5
 42
0.5
 43
0.38
 44
0.5
 45
0.0
 46
0.0
 47
0.0
 48
0.0
140
2.5
141
0.5
142
0.0
143
25.399999999999999
144
1.0
145
0.0
146
1.0
147
0.1
 71
     0
 72
     0
 73
     1
 74
     1
 75
     0
 76
     0
 77
     0
 78
     0
170
     0
171
     2
172
     0
173
     0
174
     0
175
     0
176
     0
177
     0
178
     0
  0
ENDTAB
  0
ENDSEC
  0
SECTION
  2
BLOCKS
  0
BLOCK
  8
0
  2
$MODEL_SPACE
 70
     0
 10
0.0
 20
0.0
 30
0.0
  3
$MODEL_SPACE
  1

  0
ENDBLK
  5
56
  8
0
  0
BLOCK
 67
     1
  8
0
  2
$PAPER_SPACE
 70
     0
 10
0.0
 20
0.0
 30
0.0
  3
$PAPER_SPACE
  1

  0
ENDBLK
  5
54
 67
     1
  8
0
  0
BLOCK
  8
0
  2
HAPD2
 70
     0
 10
0.0
 20
0.0
 30
0.0
  3
HAPD2
  1

  0
INSERT
  5
58
  8
ASHADE
 62
     1
  2
AVE_RENDER
 10
500.0
 20
500.0
 30
0.0
1001
AVE_RENDER
1002
{
1070
     2
1000
Pref
1070
    30
1070
    20
1070
     0
1070
     0
1000

1070
    10
1070
     0
1070
    30
1040
1.0
1070
     1
1040
0.3
1040
0.7
1040
0.0
1040
10.0
1010
-1.0
1020
-1.0
1030
-1.0
1040
0.3
1070
    49
1002
}
  0
INSERT
  5
59
  8
ASHADE
 62
     3
  2
AVE_RENDER
 10
500.0
 20
500.0
 30
0.0
1001
AVE_RENDER
1002
{
1070
     0
1000
Full Opt
1070
     0
1070
     1
1070
     1
1070
     1
1070
     0
1070
     0
1070
     0
1070
     1
1070
     1
1040
0.0001
1040
0.0001
1002
}
  0
INSERT
  5
5A
  8
ASHADE
 62
     4
  2
AVE_RENDER
 10
500.0
 20
500.0
 30
0.0
1001
AVE_RENDER
1002
{
1070
     0
1000
Quick Opt
1070
     0
1070
     1
1070
     1
1070
     1
1070
     0
1070
     0
1070
     1
1002
}
  0
POLYLINE
  5
5B
  8
POCRTE
 66
     1
 10
0.0
 20
0.0
 30
0.0
 70
     1
  0
VERTEX
  5
3EB
  8
POCRTE
 10
-469.24999999999989
 20
-405.25
 30
0.0
  0
VERTEX
  5
3EC
  8
POCRTE
 10
-394.24999999999989
 20
-405.25
 30
0.0
  0
VERTEX
  5
3ED
  8
POCRTE
 10
-394.24999999999989
 20
-330.25
 30
0.0
  0
VERTEX
  5
3EE
  8
POCRTE
 10
-469.24999999999989
 20
-330.25
 30
0.0
  0
SEQEND
  5
3EF
  8
POCRTE
  0
CIRCLE
  5
61
  8
POCRTE
 10
-465.74999999999989
 20
-402.74999999999989
 30
0.0
 40
1.25
  0
CIRCLE
  5
62
  8
POCRTE
 10
-465.74999999999989
 20
-332.74999999999977
 30
0.0
 40
1.25
  0
CIRCLE
  5
63
  8
POCRTE
 10
-397.75
 20
-402.74999999999989
 30
0.0
 40
1.25
  0
CIRCLE
  5
64
  8
POCRTE
 10
-397.75
 20
-332.74999999999977
 30
0.0
 40
1.25
  0
POLYLINE
  5
65
  8
POCRTE
 66
     1
 10
0.0
 20
0.0
 30
0.0
 70
     1
  0
VERTEX
  5
3F0
  8
POCRTE
 10
-469.24999999999989
 20
-320.25
 30
0.0
  0
VERTEX
  5
3F1
  8
POCRTE
 10
-394.24999999999989
 20
-320.25
 30
0.0
  0
VERTEX
  5
3F2
  8
POCRTE
 10
-394.24999999999989
 20
-245.25
 30
0.0
  0
VERTEX
  5
3F3
  8
POCRTE
 10
-469.24999999999989
 20
-245.25
 30
0.0
  0
SEQEND
  5
3F4
  8
POCRTE
  0
CIRCLE
  5
6B
  8
POCRTE
 10
-465.74999999999989
 20
-317.75
 30
0.0
 40
1.25
  0
CIRCLE
  5
6C
  8
POCRTE
 10
-465.74999999999989
 20
-247.75
 30
0.0
 40
1.25
  0
CIRCLE
  5
6D
  8
POCRTE
 10
-397.75
 20
-317.75
 30
0.0
 40
1.25
  0
CIRCLE
  5
6E
  8
POCRTE
 10
-397.75
 20
-247.75
 30
0.0
 40
1.25
  0
POLYLINE
  5
6F
  8
POCRTE
 66
     1
 10
0.0
 20
0.0
 30
0.0
 70
     1
  0
VERTEX
  5
3F5
  8
POCRTE
 10
-384.25
 20
-405.25
 30
0.0
  0
VERTEX
  5
3F6
  8
POCRTE
 10
-309.25
 20
-405.25
 30
0.0
  0
VERTEX
  5
3F7
  8
POCRTE
 10
-309.25
 20
-330.25
 30
0.0
  0
VERTEX
  5
3F8
  8
POCRTE
 10
-384.25
 20
-330.25
 30
0.0
  0
SEQEND
  5
3F9
  8
POCRTE
  0
CIRCLE
  5
75
  8
POCRTE
 10
-380.75
 20
-402.74999999999989
 30
0.0
 40
1.25
  0
CIRCLE
  5
76
  8
POCRTE
 10
-380.75
 20
-332.74999999999977
 30
0.0
 40
1.25
  0
CIRCLE
  5
77
  8
POCRTE
 10
-312.74999999999989
 20
-402.74999999999989
 30
0.0
 40
1.25
  0
CIRCLE
  5
78
  8
POCRTE
 10
-312.74999999999989
 20
-332.74999999999977
 30
0.0
 40
1.25
  0
POLYLINE
  5
79
  8
POCRTE
 66
     1
 10
0.0
 20
0.0
 30
0.0
 70
     1
  0
VERTEX
  5
3FA
  8
POCRTE
 10
-384.25
 20
-320.25
 30
0.0
  0
VERTEX
  5
3FB
  8
POCRTE
 10
-309.25
 20
-320.25
 30
0.0
  0
VERTEX
  5
3FC
  8
POCRTE
 10
-309.25
 20
-245.25
 30
0.0
  0
VERTEX
  5
3FD
  8
POCRTE
 10
-384.25
 20
-245.25
 30
0.0
  0
SEQEND
  5
3FE
  8
POCRTE
  0
CIRCLE
  5
7F
  8
POCRTE
 10
-380.75
 20
-317.75
 30
0.0
 40
1.25
  0
CIRCLE
  5
80
  8
POCRTE
 10
-380.75
 20
-247.75
 30
0.0
 40
1.25
  0
CIRCLE
  5
81
  8
POCRTE
 10
-312.74999999999989
 20
-317.75
 30
0.0
 40
1.25
  0
CIRCLE
  5
82
  8
POCRTE
 10
-312.74999999999989
 20
-247.75
 30
0.0
 40
1.25
  0
POLYLINE
  5
83
  8
POCRTE
 66
     1
 10
0.0
 20
0.0
 30
0.0
 70
     1
  0
VERTEX
  5
3FF
  8
POCRTE
 10
-299.25
 20
-405.25
 30
0.0
  0
VERTEX
  5
400
  8
POCRTE
 10
-224.25
 20
-405.25
 30
0.0
  0
VERTEX
  5
401
  8
POCRTE
 10
-224.25
 20
-330.25
 30
0.0
  0
VERTEX
  5
402
  8
POCRTE
 10
-299.25
 20
-330.25
 30
0.0
  0
SEQEND
  5
403
  8
POCRTE
  0
CIRCLE
  5
89
  8
POCRTE
 10
-295.74999999999989
 20
-402.74999999999989
 30
0.0
 40
1.25
  0
CIRCLE
  5
8A
  8
POCRTE
 10
-295.74999999999989
 20
-332.74999999999977
 30
0.0
 40
1.25
  0
CIRCLE
  5
8B
  8
POCRTE
 10
-227.7499999999998
 20
-402.74999999999989
 30
0.0
 40
1.25
  0
CIRCLE
  5
8C
  8
POCRTE
 10
-227.7499999999998
 20
-332.74999999999977
 30
0.0
 40
1.25
  0
POLYLINE
  5
8D
  8
POCRTE
 66
     1
 10
0.0
 20
0.0
 30
0.0
 70
     1
  0
VERTEX
  5
404
  8
POCRTE
 10
-299.25
 20
-320.25
 30
0.0
  0
VERTEX
  5
405
  8
POCRTE
 10
-224.25
 20
-320.25
 30
0.0
  0
VERTEX
  5
406
  8
POCRTE
 10
-224.25
 20
-245.25
 30
0.0
  0
VERTEX
  5
407
  8
POCRTE
 10
-299.25
 20
-245.25
 30
0.0
  0
SEQEND
  5
408
  8
POCRTE
  0
CIRCLE
  5
93
  8
POCRTE
 10
-295.74999999999989
 20
-317.75
 30
0.0
 40
1.25
  0
CIRCLE
  5
94
  8
POCRTE
 10
-295.74999999999989
 20
-247.75
 30
0.0
 40
1.25
  0
CIRCLE
  5
95
  8
POCRTE
 10
-227.7499999999998
 20
-317.75
 30
0.0
 40
1.25
  0
CIRCLE
  5
96
  8
POCRTE
 10
-227.7499999999998
 20
-247.75
 30
0.0
 40
1.25
  0
LINE
  5
97
  8
OSNOVA
 10
-463.81350832689623
 20
-248.24999999999989
 30
0.0
 11
-399.68649167310372
 21
-248.24999999999989
 31
0.0
  0
LINE
  5
98
  8
OSNOVA
 10
-463.81350832689623
 20
-317.24999999999989
 30
0.0
 11
-399.68649167310372
 21
-317.24999999999989
 31
0.0
  0
LINE
  5
99
  8
OSNOVA
 10
-468.75
 20
-249.7499999999998
 30
0.0
 11
-468.75
 21
-315.74999999999977
 31
0.0
  0
LINE
  5
9A
  8
OSNOVA
 10
-468.75
 20
-315.74999999999977
 30
0.0
 11
-465.74999999999989
 21
-315.74999999999977
 31
0.0
  0
ARC
  5
9B
  8
OSNOVA
 10
-465.74999999999989
 20
-317.75
 30
0.0
 40
2.0
 50
14.477512185929861
 51
90.0
  0
ARC
  5
9C
  8
OSNOVA
 10
-465.74999999999989
 20
-247.75
 30
0.0
 40
2.0
 50
270.0
 51
345.52248781406962
  0
LINE
  5
9D
  8
OSNOVA
 10
-468.75
 20
-249.7499999999998
 30
0.0
 11
-465.74999999999989
 21
-249.7499999999998
 31
0.0
  0
LINE
  5
9E
  8
OSNOVA
 10
-394.74999999999977
 20
-249.7499999999998
 30
0.0
 11
-394.74999999999977
 21
-315.74999999999977
 31
0.0
  0
ARC
  5
9F
  8
OSNOVA
 10
-397.75
 20
-317.75
 30
0.0
 40
2.0
 50
90.0
 51
165.5224878140701
  0
LINE
  5
A0
  8
OSNOVA
 10
-397.75
 20
-315.74999999999977
 30
0.0
 11
-394.74999999999977
 21
-315.74999999999977
 31
0.0
  0
ARC
  5
A1
  8
OSNOVA
 10
-397.75
 20
-247.75
 30
0.0
 40
2.0
 50
194.4775121859301
 51
270.0
  0
LINE
  5
A2
  8
OSNOVA
 10
-397.75
 20
-249.7499999999998
 30
0.0
 11
-394.74999999999977
 21
-249.7499999999998
 31
0.0
  0
LINE
  5
A3
  8
OSNOVA
 10
-378.81350832689623
 20
-333.25
 30
0.0
 11
-314.6864916731036
 21
-333.25
 31
0.0
  0
LINE
  5
A4
  8
OSNOVA
 10
-378.81350832689623
 20
-402.24999999999989
 30
0.0
 11
-314.6864916731036
 21
-402.24999999999989
 31
0.0
  0
LINE
  5
A5
  8
OSNOVA
 10
-383.75
 20
-334.74999999999977
 30
0.0
 11
-383.75
 21
-400.75
 31
0.0
  0
LINE
  5
A6
  8
OSNOVA
 10
-383.75
 20
-400.75
 30
0.0
 11
-380.75
 21
-400.75
 31
0.0
  0
ARC
  5
A7
  8
OSNOVA
 10
-380.75
 20
-402.74999999999989
 30
0.0
 40
2.0
 50
14.477512185929861
 51
90.0
  0
ARC
  5
A8
  8
OSNOVA
 10
-380.75
 20
-332.74999999999977
 30
0.0
 40
2.0
 50
270.0
 51
345.52248781406962
  0
LINE
  5
A9
  8
OSNOVA
 10
-383.75
 20
-334.74999999999977
 30
0.0
 11
-380.75
 21
-334.74999999999977
 31
0.0
  0
LINE
  5
AA
  8
OSNOVA
 10
-309.75
 20
-334.74999999999977
 30
0.0
 11
-309.75
 21
-400.75
 31
0.0
  0
ARC
  5
AB
  8
OSNOVA
 10
-312.74999999999989
 20
-402.74999999999989
 30
0.0
 40
2.0
 50
90.0
 51
165.5224878140701
  0
LINE
  5
AC
  8
OSNOVA
 10
-312.74999999999989
 20
-400.75
 30
0.0
 11
-309.75
 21
-400.75
 31
0.0
  0
ARC
  5
AD
  8
OSNOVA
 10
-312.74999999999989
 20
-332.74999999999977
 30
0.0
 40
2.0
 50
194.4775121859301
 51
270.0
  0
LINE
  5
AE
  8
OSNOVA
 10
-312.74999999999989
 20
-334.74999999999977
 30
0.0
 11
-309.75
 21
-334.74999999999977
 31
0.0
  0
LINE
  5
AF
  8
OSNOVA
 10
-378.81350832689623
 20
-248.24999999999989
 30
0.0
 11
-314.6864916731036
 21
-248.24999999999989
 31
0.0
  0
LINE
  5
B0
  8
OSNOVA
 10
-378.81350832689623
 20
-317.24999999999989
 30
0.0
 11
-314.6864916731036
 21
-317.24999999999989
 31
0.0
  0
LINE
  5
B1
  8
OSNOVA
 10
-383.75
 20
-249.7499999999998
 30
0.0
 11
-383.75
 21
-315.74999999999977
 31
0.0
  0
LINE
  5
B2
  8
OSNOVA
 10
-383.75
 20
-315.74999999999977
 30
0.0
 11
-380.75
 21
-315.74999999999977
 31
0.0
  0
ARC
  5
B3
  8
OSNOVA
 10
-380.75
 20
-317.75
 30
0.0
 40
2.0
 50
14.477512185929861
 51
90.0
  0
ARC
  5
B4
  8
OSNOVA
 10
-380.75
 20
-247.75
 30
0.0
 40
2.0
 50
270.0
 51
345.52248781406962
  0
LINE
  5
B5
  8
OSNOVA
 10
-383.75
 20
-249.7499999999998
 30
0.0
 11
-380.75
 21
-249.7499999999998
 31
0.0
  0
LINE
  5
B6
  8
OSNOVA
 10
-309.75
 20
-249.7499999999998
 30
0.0
 11
-309.75
 21
-315.74999999999977
 31
0.0
  0
ARC
  5
B7
  8
OSNOVA
 10
-312.74999999999989
 20
-317.75
 30
0.0
 40
2.0
 50
90.0
 51
165.5224878140701
  0
LINE
  5
B8
  8
OSNOVA
 10
-312.74999999999989
 20
-315.74999999999977
 30
0.0
 11
-309.75
 21
-315.74999999999977
 31
0.0
  0
ARC
  5
B9
  8
OSNOVA
 10
-312.74999999999989
 20
-247.75
 30
0.0
 40
2.0
 50
194.4775121859301
 51
270.0
  0
LINE
  5
BA
  8
OSNOVA
 10
-312.74999999999989
 20
-249.7499999999998
 30
0.0
 11
-309.75
 21
-249.7499999999998
 31
0.0
  0
LINE
  5
BB
  8
OSNOVA
 10
-293.81350832689611
 20
-333.25
 30
0.0
 11
-229.6864916731036
 21
-333.25
 31
0.0
  0
LINE
  5
BC
  8
OSNOVA
 10
-293.81350832689611
 20
-402.24999999999989
 30
0.0
 11
-229.6864916731036
 21
-402.24999999999989
 31
0.0
  0
LINE
  5
BD
  8
OSNOVA
 10
-298.74999999999977
 20
-334.74999999999977
 30
0.0
 11
-298.74999999999977
 21
-400.75
 31
0.0
  0
LINE
  5
BE
  8
OSNOVA
 10
-298.74999999999977
 20
-400.75
 30
0.0
 11
-295.74999999999989
 21
-400.75
 31
0.0
  0
ARC
  5
BF
  8
OSNOVA
 10
-295.74999999999989
 20
-402.74999999999989
 30
0.0
 40
2.0
 50
14.477512185929861
 51
90.0
  0
ARC
  5
C0
  8
OSNOVA
 10
-295.74999999999989
 20
-332.74999999999977
 30
0.0
 40
2.0
 50
270.0
 51
345.52248781406962
  0
LINE
  5
C1
  8
OSNOVA
 10
-298.74999999999977
 20
-334.74999999999977
 30
0.0
 11
-295.74999999999989
 21
-334.74999999999977
 31
0.0
  0
LINE
  5
C2
  8
OSNOVA
 10
-224.7499999999998
 20
-334.74999999999977
 30
0.0
 11
-224.7499999999998
 21
-400.75
 31
0.0
  0
ARC
  5
C3
  8
OSNOVA
 10
-227.7499999999998
 20
-402.74999999999989
 30
0.0
 40
2.0
 50
90.0
 51
165.5224878140701
  0
LINE
  5
C4
  8
OSNOVA
 10
-227.7499999999998
 20
-400.75
 30
0.0
 11
-224.7499999999998
 21
-400.75
 31
0.0
  0
ARC
  5
C5
  8
OSNOVA
 10
-227.7499999999998
 20
-332.74999999999977
 30
0.0
 40
2.0
 50
194.4775121859301
 51
270.0
  0
LINE
  5
C6
  8
OSNOVA
 10
-227.7499999999998
 20
-334.74999999999977
 30
0.0
 11
-224.7499999999998
 21
-334.74999999999977
 31
0.0
  0
LINE
  5
C7
  8
OSNOVA
 10
-293.81350832689611
 20
-248.24999999999989
 30
0.0
 11
-229.6864916731036
 21
-248.24999999999989
 31
0.0
  0
LINE
  5
C8
  8
OSNOVA
 10
-293.81350832689611
 20
-317.24999999999989
 30
0.0
 11
-229.6864916731036
 21
-317.24999999999989
 31
0.0
  0
LINE
  5
C9
  8
OSNOVA
 10
-298.74999999999977
 20
-249.7499999999998
 30
0.0
 11
-298.74999999999977
 21
-315.74999999999977
 31
0.0
  0
LINE
  5
CA
  8
OSNOVA
 10
-298.74999999999977
 20
-315.74999999999977
 30
0.0
 11
-295.74999999999989
 21
-315.74999999999977
 31
0.0
  0
ARC
  5
CB
  8
OSNOVA
 10
-295.74999999999989
 20
-317.75
 30
0.0
 40
2.0
 50
14.477512185929861
 51
90.0
  0
ARC
  5
CC
  8
OSNOVA
 10
-295.74999999999989
 20
-247.75
 30
0.0
 40
2.0
 50
270.0
 51
345.52248781406962
  0
LINE
  5
CD
  8
OSNOVA
 10
-298.74999999999977
 20
-249.7499999999998
 30
0.0
 11
-295.74999999999989
 21
-249.7499999999998
 31
0.0
  0
LINE
  5
CE
  8
OSNOVA
 10
-224.7499999999998
 20
-249.7499999999998
 30
0.0
 11
-224.7499999999998
 21
-315.74999999999977
 31
0.0
  0
ARC
  5
CF
  8
OSNOVA
 10
-227.7499999999998
 20
-317.75
 30
0.0
 40
2.0
 50
90.0
 51
165.5224878140701
  0
LINE
  5
D0
  8
OSNOVA
 10
-227.7499999999998
 20
-315.74999999999977
 30
0.0
 11
-224.7499999999998
 21
-315.74999999999977
 31
0.0
  0
ARC
  5
D1
  8
OSNOVA
 10
-227.7499999999998
 20
-247.75
 30
0.0
 40
2.0
 50
194.4775121859301
 51
270.0
  0
LINE
  5
D2
  8
OSNOVA
 10
-227.7499999999998
 20
-249.7499999999998
 30
0.0
 11
-224.7499999999998
 21
-249.7499999999998
 31
0.0
  0
CIRCLE
  5
D3
  8
OSNOVA
 10
-365.74999999999977
 20
-471.75
 30
0.0
 40
3.25
  0
CIRCLE
  5
D4
  8
OSNOVA
 10
-346.74999999999977
 20
-480.25
 30
0.0
 40
3.25
  0
CIRCLE
  5
D5
  8
OSNOVA
 10
-327.74999999999977
 20
-471.75
 30
0.0
 40
3.25
  0
CIRCLE
  5
D6
  8
OSNOVA
 10
-365.74999999999977
 20
-461.74999999999989
 30
0.0
 40
3.25
  0
CIRCLE
  5
D7
  8
OSNOVA
 10
-346.74999999999977
 20
-470.24999999999989
 30
0.0
 40
3.25
  0
CIRCLE
  5
D8
  8
OSNOVA
 10
-327.74999999999977
 20
-461.74999999999989
 30
0.0
 40
3.25
  0
CIRCLE
  5
D9
  8
OSNOVA
 10
-365.74999999999977
 20
-451.74999999999989
 30
0.0
 40
3.25
  0
CIRCLE
  5
DA
  8
OSNOVA
 10
-346.74999999999977
 20
-460.25
 30
0.0
 40
3.25
  0
CIRCLE
  5
DB
  8
OSNOVA
 10
-327.74999999999977
 20
-451.74999999999989
 30
0.0
 40
3.25
  0
LINE
  5
DC
  8
POCRTE
 10
-489.25
 20
-430.25
 30
0.0
 11
-204.24999999999989
 21
-430.25
 31
0.0
  0
LINE
  5
DD
  8
POCRTE
 10
-489.25
 20
-330.25
 30
0.0
 11
-204.24999999999989
 21
-330.25
 31
0.0
  0
CIRCLE
  5
DE
  8
OSNOVA
 10
-479.25
 20
-340.24999999999989
 30
0.0
 40
3.0
  0
CIRCLE
  5
DF
  8
OSNOVA
 10
-479.25
 20
-420.24999999999989
 30
0.0
 40
3.0
  0
CIRCLE
  5
E0
  8
OSNOVA
 10
-214.25
 20
-340.24999999999989
 30
0.0
 40
3.0
  0
CIRCLE
  5
E1
  8
OSNOVA
 10
-214.25
 20
-420.24999999999989
 30
0.0
 40
3.0
  0
LINE
  5
E2
  8
POCRTE
 10
-489.25
 20
-320.25
 30
0.0
 11
-204.24999999999989
 21
-320.25
 31
0.0
  0
LINE
  5
E3
  8
POCRTE
 10
-489.25
 20
-220.25
 30
0.0
 11
-204.24999999999989
 21
-220.25
 31
0.0
  0
CIRCLE
  5
E4
  8
OSNOVA
 10
-479.25
 20
-230.25
 30
0.0
 40
3.0
  0
CIRCLE
  5
E5
  8
OSNOVA
 10
-479.25
 20
-310.25
 30
0.0
 40
3.0
  0
CIRCLE
  5
E6
  8
OSNOVA
 10
-214.25
 20
-230.25
 30
0.0
 40
3.0
  0
CIRCLE
  5
E7
  8
OSNOVA
 10
-214.25
 20
-310.25
 30
0.0
 40
3.0
  0
POINT
  5
E8
  8
1
 10
-479.25
 20
-420.24999999999989
 30
0.0
  0
POINT
  5
E9
  8
1
 10
-479.25
 20
-340.24999999999989
 30
0.0
  0
POINT
  5
EA
  8
1
 10
-214.25
 20
-340.24999999999989
 30
0.0
  0
POINT
  5
EB
  8
1
 10
-214.25
 20
-420.24999999999989
 30
0.0
  0
POINT
  5
EC
  8
1
 10
-365.74999999999977
 20
-471.75
 30
0.0
  0
POINT
  5
ED
  8
1
 10
-346.74999999999977
 20
-480.25
 30
0.0
  0
POINT
  5
EE
  8
1
 10
-327.74999999999977
 20
-471.75
 30
0.0
  0
POINT
  5
EF
  8
1
 10
-465.74999999999989
 20
-402.74999999999989
 30
0.0
  0
POINT
  5
F0
  8
1
 10
-465.74999999999989
 20
-332.74999999999977
 30
0.0
  0
POINT
  5
F1
  8
1
 10
-397.75
 20
-332.74999999999977
 30
0.0
  0
POINT
  5
F2
  8
1
 10
-397.75
 20
-402.74999999999989
 30
0.0
  0
POINT
  5
F3
  8
1
 10
-346.74999999999977
 20
-470.24999999999989
 30
0.0
  0
POINT
  5
F4
  8
1
 10
-365.74999999999977
 20
-461.74999999999989
 30
0.0
  0
POINT
  5
F5
  8
1
 10
-327.74999999999977
 20
-461.74999999999989
 30
0.0
  0
POINT
  5
F6
  8
1
 10
-365.74999999999977
 20
-451.74999999999989
 30
0.0
  0
POINT
  5
F7
  8
1
 10
-346.74999999999977
 20
-460.24999999999989
 30
0.0
  0
POINT
  5
F8
  8
1
 10
-327.74999999999977
 20
-451.74999999999989
 30
0.0
  0
POINT
  5
F9
  8
1
 10
-465.74999999999989
 20
-317.75
 30
0.0
  0
POINT
  5
FA
  8
1
 10
-397.75
 20
-317.75
 30
0.0
  0
POINT
  5
FB
  8
1
 10
-397.75
 20
-247.7499999999998
 30
0.0
  0
POINT
  5
FC
  8
1
 10
-465.74999999999989
 20
-247.7499999999998
 30
0.0
  0
POINT
  5
FD
  8
1
 10
-380.75
 20
-402.74999999999989
 30
0.0
  0
POINT
  5
FE
  8
1
 10
-312.74999999999989
 20
-402.74999999999989
 30
0.0
  0
POINT
  5
FF
  8
1
 10
-312.74999999999989
 20
-332.74999999999977
 30
0.0
  0
POINT
  5
100
  8
1
 10
-380.75
 20
-332.74999999999977
 30
0.0
  0
POINT
  5
101
  8
1
 10
-380.75
 20
-317.75
 30
0.0
  0
POINT
  5
102
  8
1
 10
-312.74999999999989
 20
-317.75
 30
0.0
  0
POINT
  5
103
  8
1
 10
-312.74999999999989
 20
-247.7499999999998
 30
0.0
  0
POINT
  5
104
  8
1
 10
-380.75
 20
-247.7499999999998
 30
0.0
  0
POINT
  5
105
  8
1
 10
-295.74999999999989
 20
-402.74999999999989
 30
0.0
  0
POINT
  5
106
  8
1
 10
-227.74999999999989
 20
-402.74999999999989
 30
0.0
  0
POINT
  5
107
  8
1
 10
-227.74999999999989
 20
-332.74999999999977
 30
0.0
  0
POINT
  5
108
  8
1
 10
-295.74999999999989
 20
-332.74999999999977
 30
0.0
  0
POINT
  5
109
  8
1
 10
-295.74999999999989
 20
-317.75
 30
0.0
  0
POINT
  5
10A
  8
1
 10
-227.74999999999989
 20
-317.75
 30
0.0
  0
POINT
  5
10B
  8
1
 10
-227.74999999999989
 20
-247.7499999999998
 30
0.0
  0
POINT
  5
10C
  8
1
 10
-295.74999999999989
 20
-247.7499999999998
 30
0.0
  0
POLYLINE
  5
10D
  8
OSNOVA
 66
     1
 10
0.0
 20
0.0
 30
0.0
 70
     1
  0
VERTEX
  5
409
  8
OSNOVA
 10
-394.74999999999977
 20
-400.75
 30
0.0
  0
VERTEX
  5
40A
  8
OSNOVA
 10
-397.75
 20
-400.75
 30
0.0
 42
0.3419987131196465
  0
VERTEX
  5
40B
  8
OSNOVA
 10
-399.68649167310372
 20
-402.24999999999989
 30
0.0
  0
VERTEX
  5
40C
  8
OSNOVA
 10
-463.81350832689623
 20
-402.24999999999989
 30
0.0
 42
0.3419987131196467
  0
VERTEX
  5
40D
  8
OSNOVA
 10
-465.74999999999989
 20
-400.75
 30
0.0
  0
VERTEX
  5
40E
  8
OSNOVA
 10
-468.75
 20
-400.75
 30
0.0
  0
VERTEX
  5
40F
  8
OSNOVA
 10
-468.75
 20
-334.74999999999977
 30
0.0
  0
VERTEX
  5
410
  8
OSNOVA
 10
-465.74999999999989
 20
-334.74999999999977
 30
0.0
 42
0.3419987131196444
  0
VERTEX
  5
411
  8
OSNOVA
 10
-463.81350832689623
 20
-333.25
 30
0.0
  0
VERTEX
  5
412
  8
OSNOVA
 10
-399.68649167310372
 20
-333.25
 30
0.0
 42
0.3419987131196451
  0
VERTEX
  5
413
  8
OSNOVA
 10
-397.75
 20
-334.74999999999977
 30
0.0
  0
VERTEX
  5
414
  8
OSNOVA
 10
-394.74999999999977
 20
-334.74999999999977
 30
0.0
  0
SEQEND
  5
415
  8
OSNOVA
  0
POLYLINE
  5
11B
  8
2
 66
     1
 10
0.0
 20
0.0
 30
0.0
 70
     1
  0
VERTEX
  5
416
  8
2
 10
-395.74999999999989
 20
-399.75
 30
0.0
  0
VERTEX
  5
417
  8
2
 10
-397.75
 20
-399.75
 30
0.0
 42
0.2679491924315331
  0
VERTEX
  5
418
  8
2
 10
-400.34807621135798
 20
-401.25
 30
0.0
  0
VERTEX
  5
419
  8
2
 10
-463.15192378864663
 20
-401.25
 30
0.0
 42
0.2679491924311219
  0
VERTEX
  5
41A
  8
2
 10
-465.74999999999989
 20
-399.75
 30
0.0
  0
VERTEX
  5
41B
  8
2
 10
-467.75
 20
-399.75
 30
0.0
  0
VERTEX
  5
41C
  8
2
 10
-467.75
 20
-335.74999999999989
 30
0.0
  0
VERTEX
  5
41D
  8
2
 10
-465.74999999999989
 20
-335.74999999999989
 30
0.0
 42
0.2679491924307064
  0
VERTEX
  5
41E
  8
2
 10
-463.15192378865129
 20
-334.25
 30
0.0
  0
VERTEX
  5
41F
  8
2
 10
-400.34807621135332
 20
-334.25
 30
0.0
 42
0.2679491924311137
  0
VERTEX
  5
420
  8
2
 10
-397.75000000000011
 20
-335.74999999999989
 30
0.0
  0
VERTEX
  5
421
  8
2
 10
-395.74999999999989
 20
-335.74999999999989
 30
0.0
  0
SEQEND
  5
422
  8
2
  0
POLYLINE
  5
129
  8
2
 66
     1
 10
0.0
 20
0.0
 30
0.0
 70
     1
  0
VERTEX
  5
423
  8
2
 10
-395.74999999999989
 20
-314.74999999999989
 30
0.0
  0
VERTEX
  5
424
  8
2
 10
-397.75
 20
-314.74999999999989
 30
0.0
 42
0.2679491924315331
  0
VERTEX
  5
425
  8
2
 10
-400.34807621135798
 20
-316.25
 30
0.0
  0
VERTEX
  5
426
  8
2
 10
-463.15192378864663
 20
-316.25
 30
0.0
 42
0.2679491924311219
  0
VERTEX
  5
427
  8
2
 10
-465.74999999999989
 20
-314.74999999999989
 30
0.0
  0
VERTEX
  5
428
  8
2
 10
-467.75
 20
-314.74999999999989
 30
0.0
  0
VERTEX
  5
429
  8
2
 10
-467.75
 20
-250.7499999999998
 30
0.0
  0
VERTEX
  5
42A
  8
2
 10
-465.74999999999989
 20
-250.7499999999998
 30
0.0
 42
0.2679491924307064
  0
VERTEX
  5
42B
  8
2
 10
-463.15192378865129
 20
-249.25
 30
0.0
  0
VERTEX
  5
42C
  8
2
 10
-400.34807621135332
 20
-249.25
 30
0.0
 42
0.2679491924311137
  0
VERTEX
  5
42D
  8
2
 10
-397.75000000000011
 20
-250.7499999999998
 30
0.0
  0
VERTEX
  5
42E
  8
2
 10
-395.74999999999989
 20
-250.7499999999998
 30
0.0
  0
SEQEND
  5
42F
  8
2
  0
POLYLINE
  5
137
  8
2
 66
     1
 10
0.0
 20
0.0
 30
0.0
 70
     1
  0
VERTEX
  5
430
  8
2
 10
-310.74999999999989
 20
-399.75
 30
0.0
  0
VERTEX
  5
431
  8
2
 10
-312.75
 20
-399.75
 30
0.0
 42
0.2679491924315331
  0
VERTEX
  5
432
  8
2
 10
-315.34807621135798
 20
-401.25
 30
0.0
  0
VERTEX
  5
433
  8
2
 10
-378.15192378864663
 20
-401.25
 30
0.0
 42
0.2679491924311219
  0
VERTEX
  5
434
  8
2
 10
-380.75
 20
-399.75
 30
0.0
  0
VERTEX
  5
435
  8
2
 10
-382.75
 20
-399.75
 30
0.0
  0
VERTEX
  5
436
  8
2
 10
-382.75
 20
-335.74999999999989
 30
0.0
  0
VERTEX
  5
437
  8
2
 10
-380.74999999999989
 20
-335.74999999999989
 30
0.0
 42
0.2679491924307064
  0
VERTEX
  5
438
  8
2
 10
-378.15192378865129
 20
-334.25
 30
0.0
  0
VERTEX
  5
439
  8
2
 10
-315.34807621135332
 20
-334.25
 30
0.0
 42
0.2679491924311137
  0
VERTEX
  5
43A
  8
2
 10
-312.75000000000011
 20
-335.74999999999989
 30
0.0
  0
VERTEX
  5
43B
  8
2
 10
-310.74999999999989
 20
-335.74999999999989
 30
0.0
  0
SEQEND
  5
43C
  8
2
  0
POLYLINE
  5
145
  8
2
 66
     1
 10
0.0
 20
0.0
 30
0.0
 70
     1
  0
VERTEX
  5
43D
  8
2
 10
-310.74999999999989
 20
-314.74999999999989
 30
0.0
  0
VERTEX
  5
43E
  8
2
 10
-312.75
 20
-314.74999999999989
 30
0.0
 42
0.2679491924315331
  0
VERTEX
  5
43F
  8
2
 10
-315.34807621135798
 20
-316.25
 30
0.0
  0
VERTEX
  5
440
  8
2
 10
-378.15192378864663
 20
-316.25
 30
0.0
 42
0.2679491924311219
  0
VERTEX
  5
441
  8
2
 10
-380.75
 20
-314.74999999999989
 30
0.0
  0
VERTEX
  5
442
  8
2
 10
-382.75
 20
-314.74999999999989
 30
0.0
  0
VERTEX
  5
443
  8
2
 10
-382.75
 20
-250.7499999999998
 30
0.0
  0
VERTEX
  5
444
  8
2
 10
-380.74999999999989
 20
-250.7499999999998
 30
0.0
 42
0.2679491924307064
  0
VERTEX
  5
445
  8
2
 10
-378.15192378865129
 20
-249.25
 30
0.0
  0
VERTEX
  5
446
  8
2
 10
-315.34807621135332
 20
-249.25
 30
0.0
 42
0.2679491924311137
  0
VERTEX
  5
447
  8
2
 10
-312.75000000000011
 20
-250.7499999999998
 30
0.0
  0
VERTEX
  5
448
  8
2
 10
-310.74999999999989
 20
-250.7499999999998
 30
0.0
  0
SEQEND
  5
449
  8
2
  0
POLYLINE
  5
153
  8
2
 66
     1
 10
0.0
 20
0.0
 30
0.0
 70
     1
  0
VERTEX
  5
44A
  8
2
 10
-225.7499999999998
 20
-399.75
 30
0.0
  0
VERTEX
  5
44B
  8
2
 10
-227.75
 20
-399.75
 30
0.0
 42
0.2679491924315331
  0
VERTEX
  5
44C
  8
2
 10
-230.34807621135801
 20
-401.25
 30
0.0
  0
VERTEX
  5
44D
  8
2
 10
-293.15192378864663
 20
-401.25
 30
0.0
 42
0.2679491924311219
  0
VERTEX
  5
44E
  8
2
 10
-295.74999999999989
 20
-399.75
 30
0.0
  0
VERTEX
  5
44F
  8
2
 10
-297.75
 20
-399.75
 30
0.0
  0
VERTEX
  5
450
  8
2
 10
-297.75
 20
-335.74999999999989
 30
0.0
  0
VERTEX
  5
451
  8
2
 10
-295.74999999999989
 20
-335.74999999999989
 30
0.0
 42
0.2679491924307064
  0
VERTEX
  5
452
  8
2
 10
-293.15192378865117
 20
-334.25
 30
0.0
  0
VERTEX
  5
453
  8
2
 10
-230.34807621135329
 20
-334.25
 30
0.0
 42
0.2679491924311137
  0
VERTEX
  5
454
  8
2
 10
-227.75000000000011
 20
-335.74999999999989
 30
0.0
  0
VERTEX
  5
455
  8
2
 10
-225.7499999999998
 20
-335.74999999999989
 30
0.0
  0
SEQEND
  5
456
  8
2
  0
POLYLINE
  5
161
  8
2
 66
     1
 10
0.0
 20
0.0
 30
0.0
 70
     1
  0
VERTEX
  5
457
  8
2
 10
-225.7499999999998
 20
-314.74999999999989
 30
0.0
  0
VERTEX
  5
458
  8
2
 10
-227.75
 20
-314.74999999999989
 30
0.0
 42
0.2679491924315331
  0
VERTEX
  5
459
  8
2
 10
-230.34807621135801
 20
-316.25
 30
0.0
  0
VERTEX
  5
45A
  8
2
 10
-293.15192378864663
 20
-316.25
 30
0.0
 42
0.2679491924311219
  0
VERTEX
  5
45B
  8
2
 10
-295.74999999999989
 20
-314.74999999999989
 30
0.0
  0
VERTEX
  5
45C
  8
2
 10
-297.75
 20
-314.74999999999989
 30
0.0
  0
VERTEX
  5
45D
  8
2
 10
-297.75
 20
-250.7499999999998
 30
0.0
  0
VERTEX
  5
45E
  8
2
 10
-295.74999999999989
 20
-250.7499999999998
 30
0.0
 42
0.2679491924307064
  0
VERTEX
  5
45F
  8
2
 10
-293.15192378865117
 20
-249.25
 30
0.0
  0
VERTEX
  5
460
  8
2
 10
-230.34807621135329
 20
-249.25
 30
0.0
 42
0.2679491924311137
  0
VERTEX
  5
461
  8
2
 10
-227.75000000000011
 20
-250.7499999999998
 30
0.0
  0
VERTEX
  5
462
  8
2
 10
-225.7499999999998
 20
-250.7499999999998
 30
0.0
  0
SEQEND
  5
463
  8
2
  0
POINT
  5
16F
  8
1
 10
-479.25
 20
-310.25
 30
0.0
  0
POINT
  5
170
  8
1
 10
-479.25
 20
-230.25
 30
0.0
  0
POINT
  5
171
  8
1
 10
-214.25
 20
-310.25
 30
0.0
  0
POINT
  5
172
  8
1
 10
-214.25
 20
-230.25
 30
0.0
  0
POINT
  5
173
  8
1
 10
-479.25
 20
-270.25
 30
0.0
  0
CIRCLE
  5
174
  8
OSNOVA
 10
-479.25
 20
-270.25
 30
0.0
 40
3.0
  0
POINT
  5
175
  8
1
 10
-214.25
 20
-270.25
 30
0.0
  0
CIRCLE
  5
176
  8
OSNOVA
 10
-214.25
 20
-270.25
 30
0.0
 40
3.0
  0
POINT
  5
177
  8
1
 10
-214.25
 20
-380.25
 30
0.0
  0
CIRCLE
  5
178
  8
OSNOVA
 10
-214.25
 20
-380.25
 30
0.0
 40
3.0
  0
POINT
  5
179
  8
1
 10
-479.25
 20
-380.25
 30
0.0
  0
CIRCLE
  5
17A
  8
OSNOVA
 10
-479.25
 20
-380.25
 30
0.0
 40
3.0
  0
POLYLINE
  5
17B
  8
OSNOVA
 66
     1
 10
0.0
 20
0.0
 30
0.0
 70
     1
  0
VERTEX
  5
464
  8
OSNOVA
 10
-489.25
 20
-445.24999999999989
 30
0.0
  0
VERTEX
  5
465
  8
OSNOVA
 10
-379.24999999999989
 20
-445.24999999999989
 30
0.0
  0
VERTEX
  5
466
  8
OSNOVA
 10
-379.24999999999989
 20
-489.25
 30
0.0
  0
VERTEX
  5
467
  8
OSNOVA
 10
-314.25
 20
-489.25
 30
0.0
  0
VERTEX
  5
468
  8
OSNOVA
 10
-314.25
 20
-445.24999999999989
 30
0.0
  0
VERTEX
  5
469
  8
OSNOVA
 10
-204.24999999999989
 20
-445.24999999999989
 30
0.0
  0
VERTEX
  5
46A
  8
OSNOVA
 10
-204.24999999999989
 20
-215.24999999999989
 30
0.0
  0
VERTEX
  5
46B
  8
OSNOVA
 10
-489.25
 20
-215.2499999999998
 30
0.0
  0
SEQEND
  5
46C
  8
OSNOVA
  0
POLYLINE
  5
185
  8
3
 66
     1
 10
0.0
 20
0.0
 30
0.0
 70
     1
  0
VERTEX
  5
46D
  8
3
 10
-490.24999999999989
 20
-446.25
 30
0.0
  0
VERTEX
  5
46E
  8
3
 10
-380.25
 20
-446.25
 30
0.0
  0
VERTEX
  5
46F
  8
3
 10
-380.25
 20
-490.24999999999989
 30
0.0
  0
VERTEX
  5
470
  8
3
 10
-313.25
 20
-490.24999999999989
 30
0.0
  0
VERTEX
  5
471
  8
3
 10
-313.25
 20
-446.25
 30
0.0
  0
VERTEX
  5
472
  8
3
 10
-203.25
 20
-446.25
 30
0.0
  0
VERTEX
  5
473
  8
3
 10
-203.25
 20
-214.25
 30
0.0
  0
VERTEX
  5
474
  8
3
 10
-490.24999999999989
 20
-214.2499999999998
 30
0.0
  0
SEQEND
  5
475
  8
3
  0
ENDBLK
  5
18F
  8
0
  0
BLOCK
  8
0
  2
A4P
 70
     0
 10
0.0
 20
0.0
 30
0.0
  3
A4P
  1

  0
POLYLINE
  5
195
  8
TEXTP
 66
     1
 10
0.0
 20
0.0
 30
0.0
 70
     1
 40
0.02
 41
0.02
  0
VERTEX
  5
476
  8
TEXTP
 10
0.0
 20
0.0
 30
0.0
  0
VERTEX
  5
477
  8
TEXTP
 10
0.0
 20
285.0
 30
0.0
  0
VERTEX
  5
478
  8
TEXTP
 10
198.0
 20
285.0
 30
0.0
  0
VERTEX
  5
479
  8
TEXTP
 10
198.0
 20
0.0
 30
0.0
  0
SEQEND
  5
47A
  8
TEXTP
  0
POLYLINE
  5
19B
  8
TEXTP
 66
     1
 10
0.0
 20
0.0
 30
0.0
 70
     1
 40
0.02
 41
0.02
  0
VERTEX
  5
47B
  8
TEXTP
 10
4.5
 20
4.5
 30
0.0
  0
VERTEX
  5
47C
  8
TEXTP
 10
4.5
 20
280.5
 30
0.0
  0
VERTEX
  5
47D
  8
TEXTP
 10
193.5
 20
280.5
 30
0.0
  0
VERTEX
  5
47E
  8
TEXTP
 10
193.5
 20
4.5
 30
0.0
  0
SEQEND
  5
47F
  8
TEXTP
  0
LINE
  5
1A1
  8
TEXTP
 10
4.0
 20
22.5
 30
0.0
 11
194.0
 21
22.5
 31
0.0
  0
LINE
  5
1A2
  8
TEXTP
 10
4.0
 20
12.5
 30
0.0
 11
194.0
 21
12.5
 31
0.0
  0
LINE
  5
1A3
  8
TEXTP
 10
4.0
 20
13.0
 30
0.0
 11
194.0
 21
13.0
 31
0.0
  0
LINE
  5
1A4
  8
TEXTP
 10
4.0
 20
22.0
 30
0.0
 11
194.0
 21
22.0
 31
0.0
  0
POLYLINE
  5
1A5
  8
TEXTP
 66
     1
 10
0.0
 20
0.0
 30
0.0
 70
     1
 40
0.02
 41
0.02
  0
VERTEX
  5
480
  8
TEXTP
 10
4.0
 20
4.0
 30
0.0
  0
VERTEX
  5
481
  8
TEXTP
 10
4.0
 20
281.0
 30
0.0
  0
VERTEX
  5
482
  8
TEXTP
 10
194.0
 20
281.0
 30
0.0
  0
VERTEX
  5
483
  8
TEXTP
 10
194.0
 20
4.0
 30
0.0
  0
SEQEND
  5
484
  8
TEXTP
  0
TEXT
  5
1AB
  8
TEXTP
 10
5.0
 20
6.0
 30
0.0
 40
4.0
  1
kosov
  7
ADESK1
  0
LINE
  5
1AD
  8
TEXTP
 10
23.5
 20
4.0
 30
0.0
 11
23.5
 21
13.0
 31
0.0
  0
LINE
  5
1AE
  8
TEXTP
 10
15.5
 20
13.0
 30
0.0
 11
15.5
 21
22.0
 31
0.0
  0
LINE
  5
1AF
  8
TEXTP
 10
15.0
 20
13.0
 30
0.0
 11
15.0
 21
22.0
 31
0.0
  0
LINE
  5
1B0
  8
TEXTP
 10
43.0
 20
4.0
 30
0.0
 11
43.0
 21
13.0
 31
0.0
  0
TEXT
  5
1B1
  8
TEXTP
 10
44.5
 20
6.0
 30
0.0
 40
4.0
  1
material
  7
ADESK1
  0
LINE
  5
1B2
  8
TEXTP
 10
43.5
 20
4.0
 30
0.0
 11
43.5
 21
13.0
 31
0.0
  0
LINE
  5
1B3
  8
TEXTP
 10
70.0
 20
4.0
 30
0.0
 11
70.0
 21
13.0
 31
0.0
  0
TEXT
  5
1B4
  8
TEXTP
 10
144.0
 20
14.5
 30
0.0
 40
4.0
  1
S. Korpar
  7
ADESK1
  0
TEXT
  5
1B5
  8
TEXTP
 10
104.0
 20
14.5
 30
0.0
 40
4.0
  1
konstr.
  7
ADESK1
  0
LINE
  5
1B6
  8
TEXTP
 10
100.5
 20
13.0
 30
0.0
 11
100.5
 21
22.0
 31
0.0
  0
LINE
  5
1B7
  8
TEXTP
 10
100.0
 20
13.0
 30
0.0
 11
100.0
 21
22.0
 31
0.0
  0
LINE
  5
1B8
  8
TEXTP
 10
139.5
 20
4.0
 30
0.0
 11
139.5
 21
13.0
 31
0.0
  0
LINE
  5
1B9
  8
TEXTP
 10
158.0
 20
4.0
 30
0.0
 11
158.0
 21
13.0
 31
0.0
  0
LINE
  5
1BA
  8
TEXTP
 10
140.0
 20
4.0
 30
0.0
 11
140.0
 21
13.0
 31
0.0
  0
TEXT
  5
1BB
  8
TEXTP
 10
141.0
 20
6.0
 30
0.0
 40
4.0
  1
mere
  7
ADESK1
  0
LINE
  5
1BC
  8
TEXTP
 10
130.0
 20
13.0
 30
0.0
 11
130.0
 21
22.0
 31
0.0
  0
TEXT
  5
1BD
  8
TEXTP
 10
167.0
 20
6.0
 30
0.0
 40
4.0
  1
mm
  7
ADESK1
  0
ENDBLK
  5
1BE
  8
0
  0
BLOCK
  8
0
  2
AVE_RENDER
 70
     0
 10
500.0
 20
500.0
 30
0.0
  3
AVE_RENDER
  1
AVE_RENDER
  0
ENDBLK
  5
1C0
  8
0
  0
BLOCK
  8
0
  2
*D5
 70
     1
 10
0.0
 20
0.0
 30
0.0
  3
*D5
  1

  0
LINE
  5
3C0
  8
TEXT
 62
     0
 10
131.00000000000011
 20
33.0
 30
0.0
 11
131.00000000000011
 21
19.5
 31
0.0
  0
LINE
  5
3C1
  8
TEXT
 62
     0
 10
169.00000000000011
 20
33.0
 30
0.0
 11
169.00000000000011
 21
19.5
 31
0.0
  0
LINE
  5
3C2
  8
TEXT
 62
     0
 10
133.50000000000011
 20
20.0
 30
0.0
 11
146.35833333333341
 21
20.0
 31
0.0
  0
LINE
  5
3C3
  8
TEXT
 62
     0
 10
166.50000000000011
 20
20.0
 30
0.0
 11
153.64166666666671
 21
20.0
 31
0.0
  0
SOLID
  5
3C4
  8
TEXT
 62
     0
 10
133.50000000000011
 20
20.416666666666661
 30
0.0
 11
133.50000000000011
 21
19.583333333333329
 31
0.0
 12
131.00000000000011
 22
20.0
 32
0.0
 13
131.00000000000011
 23
20.0
 33
0.0
  0
SOLID
  5
3C5
  8
TEXT
 62
     0
 10
166.50000000000011
 20
20.416666666666661
 30
0.0
 11
166.50000000000011
 21
19.583333333333329
 31
0.0
 12
169.00000000000011
 22
20.0
 32
0.0
 13
169.00000000000011
 23
20.0
 33
0.0
  0
TEXT
  5
3C6
  8
TEXT
 62
     0
 10
146.4583333333334
 20
18.75
 30
0.0
 40
2.5
  1
38.0
  0
POINT
  5
3C7
  8
DEFPOINTS
 62
     0
 10
131.00000000000011
 20
33.5
 30
0.0
  0
POINT
  5
3C8
  8
DEFPOINTS
 62
     0
 10
169.00000000000011
 20
33.5
 30
0.0
  0
POINT
  5
3C9
  8
DEFPOINTS
 62
     0
 10
169.00000000000011
 20
20.0
 30
0.0
  0
ENDBLK
  5
347
  8
0
  0
ENDSEC
  0
SECTION
  2
ENTITIES
  0
INSERT
  5
1C1
  8
ASHADE
 62
     1
  2
AVE_RENDER
 10
1000.0
 20
1000.0
 30
0.0
1001
AVE_RENDER
1002
{
1070
     2
1000
Pref
1070
    30
1070
    20
1070
     0
1070
     0
1000

1070
    10
1070
     0
1070
    30
1040
1.0
1070
     1
1040
0.3
1040
0.7
1040
0.0
1040
10.0
1010
-1.0
1020
-1.0
1030
-1.0
1040
0.3
1070
    49
1002
}
  0
INSERT
  5
1C2
  8
ASHADE
 62
     3
  2
AVE_RENDER
 10
1000.0
 20
1000.0
 30
0.0
1001
AVE_RENDER
1002
{
1070
     0
1000
Full Opt
1070
     0
1070
     1
1070
     1
1070
     1
1070
     0
1070
     0
1070
     0
1070
     1
1070
     1
1040
0.0001
1040
0.0001
1002
}
  0
INSERT
  5
1C3
  8
ASHADE
 62
     4
  2
AVE_RENDER
 10
1000.0
 20
1000.0
 30
0.0
1001
AVE_RENDER
1002
{
1070
     0
1000
Quick Opt
1070
     0
1070
     1
1070
     1
1070
     1
1070
     0
1070
     0
1070
     1
1002
}
  0
POLYLINE
  5
1D8
  8
POCRTE
 66
     1
 10
0.0
 20
0.0
 30
0.0
 70
     1
  0
VERTEX
  5
485
  8
POCRTE
 10
112.5
 20
122.5
 30
0.0
  0
VERTEX
  5
486
  8
POCRTE
 10
187.5
 20
122.5
 30
0.0
  0
VERTEX
  5
487
  8
POCRTE
 10
187.5
 20
197.5
 30
0.0
  0
VERTEX
  5
488
  8
POCRTE
 10
112.5
 20
197.5
 30
0.0
  0
SEQEND
  5
489
  8
POCRTE
  0
CIRCLE
  5
1DE
  8
POCRTE
 10
116.0
 20
125.0
 30
0.0
 40
1.25
  0
CIRCLE
  5
1DF
  8
POCRTE
 10
116.0
 20
195.00000000000011
 30
0.0
 40
1.25
  0
CIRCLE
  5
1E0
  8
POCRTE
 10
184.0
 20
125.0
 30
0.0
 40
1.25
  0
CIRCLE
  5
1E1
  8
POCRTE
 10
184.0
 20
195.00000000000011
 30
0.0
 40
1.25
  0
LINE
  5
20C
  8
OSNOVA
 10
117.9364916731037
 20
194.5
 30
0.0
 11
182.06350832689631
 21
194.5
 31
0.0
  0
LINE
  5
20D
  8
OSNOVA
 10
117.9364916731037
 20
125.5
 30
0.0
 11
182.06350832689631
 21
125.5
 31
0.0
  0
LINE
  5
20E
  8
OSNOVA
 10
113.0
 20
193.00000000000011
 30
0.0
 11
113.0
 21
127.0
 31
0.0
  0
LINE
  5
20F
  8
OSNOVA
 10
113.0
 20
127.0
 30
0.0
 11
116.0
 21
127.0
 31
0.0
  0
ARC
  5
210
  8
OSNOVA
 10
116.0
 20
125.0
 30
0.0
 40
2.0
 50
14.477512185929861
 51
90.0
  0
ARC
  5
211
  8
OSNOVA
 10
116.0
 20
195.00000000000011
 30
0.0
 40
2.0
 50
270.0
 51
345.52248781406962
  0
LINE
  5
212
  8
OSNOVA
 10
113.0
 20
193.00000000000011
 30
0.0
 11
116.0
 21
193.00000000000011
 31
0.0
  0
LINE
  5
213
  8
OSNOVA
 10
187.0
 20
193.00000000000011
 30
0.0
 11
187.0
 21
127.0
 31
0.0
  0
ARC
  5
214
  8
OSNOVA
 10
184.0
 20
125.0
 30
0.0
 40
2.0
 50
90.0
 51
165.5224878140701
  0
LINE
  5
215
  8
OSNOVA
 10
184.0
 20
127.0
 30
0.0
 11
187.0
 21
127.0
 31
0.0
  0
ARC
  5
216
  8
OSNOVA
 10
184.0
 20
195.00000000000011
 30
0.0
 40
2.0
 50
194.4775121859301
 51
270.0
  0
LINE
  5
217
  8
OSNOVA
 10
184.0
 20
193.00000000000011
 30
0.0
 11
187.0
 21
193.00000000000011
 31
0.0
  0
CIRCLE
  5
23C
  8
OSNOVA
 10
131.00000000000011
 20
33.5
 30
0.0
 40
3.25
  0
CIRCLE
  5
23D
  8
OSNOVA
 10
150.00000000000011
 20
25.0
 30
0.0
 40
3.25
  0
CIRCLE
  5
23E
  8
OSNOVA
 10
169.00000000000011
 20
33.5
 30
0.0
 40
3.25
  0
CIRCLE
  5
23F
  8
OSNOVA
 10
131.00000000000011
 20
43.5
 30
0.0
 40
3.25
  0
CIRCLE
  5
240
  8
OSNOVA
 10
150.00000000000011
 20
35.0
 30
0.0
 40
3.25
  0
CIRCLE
  5
241
  8
OSNOVA
 10
169.00000000000011
 20
43.5
 30
0.0
 40
3.25
  0
CIRCLE
  5
242
  8
OSNOVA
 10
131.00000000000011
 20
53.50000000000005
 30
0.0
 40
3.25
  0
CIRCLE
  5
243
  8
OSNOVA
 10
150.00000000000011
 20
45.0
 30
0.0
 40
3.25
  0
CIRCLE
  5
244
  8
OSNOVA
 10
169.00000000000011
 20
53.50000000000005
 30
0.0
 40
3.25
  0
CIRCLE
  5
247
  8
OSNOVA
 10
87.5
 20
145.0
 30
0.0
 40
3.0
  0
CIRCLE
  5
249
  8
OSNOVA
 10
212.5
 20
145.0
 30
0.0
 40
3.0
  0
CIRCLE
  5
24E
  8
OSNOVA
 10
87.5
 20
175.0
 30
0.0
 40
3.0
  0
CIRCLE
  5
250
  8
OSNOVA
 10
212.5
 20
175.0
 30
0.0
 40
3.0
  0
POINT
  5
252
  8
1
 10
87.5
 20
145.0
 30
0.0
  0
POINT
  5
253
  8
1
 10
212.5
 20
145.0
 30
0.0
  0
POINT
  5
255
  8
1
 10
131.00000000000011
 20
33.5
 30
0.0
  0
POINT
  5
257
  8
1
 10
169.00000000000011
 20
33.5
 30
0.0
  0
POINT
  5
25C
  8
1
 10
150.00000000000011
 20
35.0
 30
0.0
  0
POINT
  5
25D
  8
1
 10
131.00000000000011
 20
43.5
 30
0.0
  0
POINT
  5
25E
  8
1
 10
169.00000000000011
 20
43.5
 30
0.0
  0
POINT
  5
25F
  8
1
 10
131.00000000000011
 20
53.50000000000005
 30
0.0
  0
POINT
  5
260
  8
1
 10
150.00000000000011
 20
45.000000000000057
 30
0.0
  0
POINT
  5
261
  8
1
 10
169.00000000000011
 20
53.50000000000005
 30
0.0
  0
POINT
  5
266
  8
1
 10
116.0
 20
125.0
 30
0.0
  0
POINT
  5
267
  8
1
 10
184.0
 20
125.0
 30
0.0
  0
POINT
  5
268
  8
1
 10
184.0
 20
195.00000000000011
 30
0.0
  0
POINT
  5
269
  8
1
 10
116.0
 20
195.00000000000011
 30
0.0
  0
POLYLINE
  5
2A0
  8
2
 66
     1
 10
0.0
 20
0.0
 30
0.0
 70
     1
  0
VERTEX
  5
48A
  8
2
 10
186.00000000000011
 20
128.0
 30
0.0
  0
VERTEX
  5
48B
  8
2
 10
183.99999999999989
 20
128.0
 30
0.0
 42
0.2679491924315331
  0
VERTEX
  5
48C
  8
2
 10
181.40192378864191
 20
126.5
 30
0.0
  0
VERTEX
  5
48D
  8
2
 10
118.5980762113533
 20
126.5
 30
0.0
 42
0.2679491924311219
  0
VERTEX
  5
48E
  8
2
 10
116.0
 20
128.0
 30
0.0
  0
VERTEX
  5
48F
  8
2
 10
114.0
 20
128.0
 30
0.0
  0
VERTEX
  5
490
  8
2
 10
114.0
 20
192.00000000000011
 30
0.0
  0
VERTEX
  5
491
  8
2
 10
116.0
 20
192.00000000000011
 30
0.0
 42
0.2679491924307064
  0
VERTEX
  5
492
  8
2
 10
118.5980762113487
 20
193.5
 30
0.0
  0
VERTEX
  5
493
  8
2
 10
181.4019237886466
 20
193.5
 30
0.0
 42
0.2679491924311137
  0
VERTEX
  5
494
  8
2
 10
183.9999999999998
 20
192.00000000000011
 30
0.0
  0
VERTEX
  5
495
  8
2
 10
186.00000000000011
 20
192.00000000000011
 30
0.0
  0
SEQEND
  5
496
  8
2
  0
POINT
  5
2D8
  8
1
 10
87.5
 20
175.0
 30
0.0
  0
POINT
  5
2DA
  8
1
 10
212.5
 20
175.0
 30
0.0
  0
POINT
  5
2DC
  8
1
 10
87.5
 20
215.0
 30
0.0
  0
CIRCLE
  5
2DD
  8
OSNOVA
 10
87.5
 20
215.0
 30
0.0
 40
3.0
  0
POINT
  5
2DE
  8
1
 10
212.5
 20
215.0
 30
0.0
  0
CIRCLE
  5
2DF
  8
OSNOVA
 10
212.5
 20
215.0
 30
0.0
 40
3.0
  0
POINT
  5
2E0
  8
1
 10
212.5
 20
105.0
 30
0.0
  0
CIRCLE
  5
2E1
  8
OSNOVA
 10
212.5
 20
105.0
 30
0.0
 40
3.0
  0
POINT
  5
2E2
  8
1
 10
87.5
 20
105.0
 30
0.0
  0
CIRCLE
  5
2E3
  8
OSNOVA
 10
87.5
 20
105.0
 30
0.0
 40
3.0
  0
LINE
  5
30C
  8
CLINE
 10
76.499724815157748
 20
175.0
 30
0.0
 11
106.46762535717767
 21
240.95274284428626
 31
0.0
  0
LINE
  5
30D
  8
CLINE
 10
149.99488751285443
 20
14.998694648743976
 30
0.0
 11
223.48595228048305
 21
26.283240391642536
 31
0.0
  0
POINT
  5
310
  8
1
 10
150.00000000000011
 20
25.0
 30
0.0
  0
POLYLINE
  5
328
  8
OSNOVA
 66
     1
 10
0.0
 20
0.0
 30
0.0
  0
VERTEX
  5
497
  8
OSNOVA
 10
222.5
 20
240.0
 30
0.0
  0
VERTEX
  5
498
  8
OSNOVA
 10
77.5
 20
240.00000000000011
 30
0.0
  0
VERTEX
  5
499
  8
OSNOVA
 10
77.5
 20
60.0
 30
0.0
  0
VERTEX
  5
49A
  8
OSNOVA
 10
117.5
 20
60.0
 30
0.0
  0
VERTEX
  5
49B
  8
OSNOVA
 10
117.5
 20
16.0
 30
0.0
  0
VERTEX
  5
49C
  8
OSNOVA
 10
182.5
 20
16.0
 30
0.0
  0
VERTEX
  5
49D
  8
OSNOVA
 10
182.5
 20
60.0
 30
0.0
  0
VERTEX
  5
49E
  8
OSNOVA
 10
222.5
 20
60.0
 30
0.0
  0
VERTEX
  5
49F
  8
OSNOVA
 10
222.5
 20
240.0
 30
0.0
  0
SEQEND
  5
4A0
  8
OSNOVA
  0
POLYLINE
  5
329
  8
3
 66
     1
 10
0.0
 20
0.0
 30
0.0
  0
VERTEX
  5
4A1
  8
3
 10
223.49999999999989
 20
241.0
 30
0.0
  0
VERTEX
  5
4A2
  8
3
 10
76.5
 20
241.00000000000011
 30
0.0
  0
VERTEX
  5
4A3
  8
3
 10
76.5
 20
59.0
 30
0.0
  0
VERTEX
  5
4A4
  8
3
 10
116.5
 20
59.0
 30
0.0
  0
VERTEX
  5
4A5
  8
3
 10
116.5
 20
15.0
 30
0.0
  0
VERTEX
  5
4A6
  8
3
 10
183.49999999999989
 20
15.0
 30
0.0
  0
VERTEX
  5
4A7
  8
3
 10
183.49999999999989
 20
59.0
 30
0.0
  0
VERTEX
  5
4A8
  8
3
 10
223.49999999999989
 20
59.0
 30
0.0
  0
VERTEX
  5
4A9
  8
3
 10
223.49999999999989
 20
241.0
 30
0.0
  0
SEQEND
  5
4AA
  8
3
  0
DIMENSION
  5
339
  8
TEXT
  2
*D5
 10
169.00000000000011
 20
20.0
 30
0.0
 11
150.00000000000011
 21
20.0
 31
0.0
 70
     0
 13
131.00000000000011
 23
33.5
 33
0.0
 14
169.00000000000011
 24
33.5
 34
0.0
  0
ENDSEC
  0
EOF
